Green Lantern First Flight Download Torrent 720p Utorrent

leechers: 23
Added on December 31, 2014 by sinha2248in Movies > Highres Movies
Torrent verified.

  • Movie:Green Lantern: First Flight
  • Detected quality: 1080p
  • IMDB rating: 7.2 (8,351 votes)
  • RottenTomatoes: 50% 70%
  • Genres:Action, Animation, Sci-fi, Adventure, Fantasy
  • Cast:Michael Madsen, Victor Garber, Kurtwood Smith, Olivia D'Abo, Christopher Meloni, David L. Lander, Larry Drake, Richard Green, Juliet Landau, John Larroquette and others
  • Release date: January 16, 2010
  • Language: English
Available in versions:1080p720pBDRipHDRiPDVDDVDRip

Green Lantern First Flight 2009 1080p BluRay H264 AAC-RARBG (Size: 1.48 GB)
Green.Lantern.First.Flight.2009.1080p.BluRay.H264.AAC-RARBG.mp41.48 GB
Green.Lantern.First.Flight.2009.1080p.BluRay.H264.AAC-RARBG.nfo3.8 KB
rarbg.com.mp44 bytes
rarbg.com.txt4 bytes
english.srt48.49 KB

Description


Video
ID : 1
Format : AVC
Format/Info : Advanced Video Codec
Format profile : [email protected]
Format settings, CABAC : Yes
Format settings, ReFrames : 4 frames
Codec ID : avc1
Codec ID/Info : Advanced Video Coding
Duration : 1h 17mn
Bit rate : 2 500 Kbps
Width : 1 920 pixels
Height : 1 080 pixels
Display aspect ratio : 16:9
Frame rate mode : Constant
Frame rate : 23.976 fps
Color space : YUV
Chroma subsampling : 4:2:0
Bit depth : 8 bits
Scan type : Progressive
Bits/(Pixel*Frame) : 0.050
Stream size : 1.35 GiB (92%)
Writing library : x264 core 144 r2525M 40bb568
Encoding settings : cabac=1 / ref=4 / deblock=1:-1:-1 / analyse=0x3:0x113 / me=umh / subme=9 / psy=1 / psy_rd=1.00:0.15 / mixed_ref=1 / me_range=24 / chroma_me=1 / trellis=2 / 8x8dct=1 / cqm=0 / deadzone=21,11 / fast_pskip=1 / chroma_qp_offset=-3 / threads=32 / lookahead_threads=4 / sliced_threads=0 / nr=0 / decimate=1 / interlaced=0 / bluray_compat=0 / constrained_intra=0 / bframes=3 / b_pyramid=2 / b_adapt=1 / b_bias=0 / direct=1 / weightb=1 / open_gop=0 / weightp=2 / keyint=250 / keyint_min=25 / scenecut=40 / intra_refresh=0 / rc_lookahead=50 / rc=2pass / mbtree=1 / bitrate=2500 / ratetol=1.0 / qcomp=0.60 / qpmin=0 / qpmax=69 / qpstep=4 / cplxblur=20.0 / qblur=0.5 / vbv_maxrate=31250 / vbv_bufsize=31250 / nal_hrd=none / filler=0 / ip_ratio=1.40 / aq=3:1.00
Encoded date : UTC 1904-01-01 00:00:00
Tagged date : UTC 1904-01-01 00:00:00
Audio
ID : 2
Format : AAC
Format/Info : Advanced Audio Codec
Format profile : LC
Codec ID : 40
Duration : 1h 17mn
Duration_LastFrame : 43ms
Bit rate mode : Constant
Bit rate : 224 Kbps
Channel(s) : 2 channels
Channel(s)_Original : 6 channels
Channel positions : Front: L C R, Side: L R, LFE
Sampling rate : 48.0 KHz
Compression mode : Lossy
Stream size : 124 MiB (8%)
Encoded date : UTC 1904-01-01 00:00:00
Tagged date : UTC 1904-01-01 00:00:00

Related Torrents

torrent namesizeseedleech
Green.Lantern.First.Flight.2009.STV.WS.DVDRIP.XviD-DEMENTA.[TV-MPosted by in Movies
708.94 MB80
Green Lantern First Flight 2009 DVDRIP XVID-FHW(No Rars)Posted by in Movies
705.13 MB62
Green Lantern First Flight 2009 BluRay 720p H264Posted by in Movies > Highres Movies
700.56 MB416
Green Lantern First Flight 2009 DVDRIP [email protected]Posted by in Movies
905.18 MB62
Green Lantern. First Flight (2009) 1080p BlurayRip, Dual Audio: (Espa単ol Latino + Ingles + Sub.)Posted by audiolatinot in Movies > Dubbed Movies
2.41 GB2612

Sharing Widget


Download torrent
seeders:35
Green Lantern First Flight 2009 1080p BluRay H264 AAC-RARBG

As the home planet of the Green Lantern Corps faces a battle with anancient enemy, Hal Jordan prepares new recruit Arisia for the comingconflict by relating stories of the first Green Lantern and several ofHal's comrades. This whole movie is basically upon other Lantern's youhave Laira, Abin Sur, Sinestro, Kilowog and more. Honestly this isn'tas great as First Flight was but that doesn't mean it's a bad animatedDC movie it's just that it kinda makes you wonder is it a prequel or asequel to the 2009 film cause many of the characters from the previousfilm are still alive but anyways the strongest flashbacks is the one ofLaira and Kilowog i found their stories more interesting the other'swere OK nothing more. But in the end of the day this was a pretty goodmovie. 9 out of 10 for me.

Green Lantern First Flight Download Torrent 720p Utorrent

Green Lantern First Flight Download Torrent 720p Utorrent Free

Come and download green lantern absolutely for free. Fast downloads. Green Lantern 2011 x264 720p Esub BluRay Dual Audio English Hindi GOPISAHI.mkv Posted by kat.rip in Movies. Green.Lantern.First.Flight.2009.BluRay.720p.H264 Posted by kat.rip in Movies. 700.6 MB: 4: 2 years: 28: 660: 6. Picktorrent: green lantern first flight dvdrip xvid ph2 - Free Search and Download Torrents at search engine. Download Music, TV Shows, Movies, Anime, Software and more. Green lantern first flight dvdrip xvid ph2 - Search and Download. Green lantern movie movies the animated series first flights emerald knights 720p collection complete cartoons sci-fi animation live-action ryan reynolds action hal jordan Uploaded: Feb 10, 2016. 토렌트 그린 랜턴: 퍼스트 플라이트 Green.Lantern.First.Flight.2009.720p 1080p.BluRay.H264.AAC-RARBG - 토렌트왈.